<?xml version="1.0" standalone="no"?>
<!DOCTYPE svg PUBLIC "-//W3C//DTD SVG 1.1//EN" "http://www.w3.org/Graphics/SVG/1.1/DTD/svg11.dtd" >
<svg>
<metadata>
Created by FontForge 20090914 at Thu Aug  2 12:54:08 2012
 By www-data
Copyright (c) Boutros International, 2005. All rights reserved.
</metadata>
<defs>
<font id="GEFlow-Bold" horiz-adv-x="550" >
  <font-face 
    font-family="GE Flow"
    font-weight="700"
    font-stretch="normal"
    units-per-em="1000"
    panose-1="2 10 5 3 2 1 2 2 2 4"
    ascent="800"
    descent="-200"
    bbox="-114 -425 1187 1057"
    underline-thickness="50"
    underline-position="-50"
    unicode-range="U+0020-U+FEFF"
  />
<missing-glyph horiz-adv-x="500" 
d="M63 0h375v750h-375v-750zM125 63v625h250v-625h-250z" />
    <glyph glyph-name="shaddakasraarabic" unicode="&#x650;&#x651;" horiz-adv-x="0" arabic-form="isolated" 
d="M257 918c1 -27 -3 -57 -33 -72c-33 -17 -59 -9 -73 -2c-9 -12 -31 -31 -67 -31c-69 -2 -59 55 -40 97l43 14l-10 -43c-8 -33 30 -20 45 14c6 15 10 36 10 36l34 8s-5 -51 20 -52c27 -2 24 52 26 59l42 5c2 -16 2 -24 3 -33zM282 819c-15 -55 -54 -63 -84 -68l-188 -35
c19 42 48 57 75 62z" />
    <glyph glyph-name="shaddakasratanarabic" unicode="&#x64d;&#x651;" horiz-adv-x="0" arabic-form="isolated" 
d="M267 1024c1 -27 -3 -57 -33 -73c-33 -16 -59 -8 -73 -1c-10 -11 -32 -32 -68 -32c-68 -1 -59 55 -39 98l42 14s-5 -25 -9 -43c-9 -33 30 -20 45 14c5 15 10 36 10 36l34 8s-6 -51 19 -52c28 -2 25 52 26 59l42 5c2 -16 2 -24 4 -33zM290 918c-14 -59 -52 -67 -82 -74
l-186 -38c18 44 47 62 74 67zM275 830c-14 -59 -52 -67 -83 -74l-185 -38c18 44 47 62 74 67z" />
    <glyph glyph-name="shaddafathaarabic" unicode="&#x64e;&#x651;" horiz-adv-x="0" arabic-form="isolated" 
d="M268 973c-15 -56 -55 -63 -84 -68l-188 -36c19 41 48 58 75 63zM236 839c2 -28 -2 -57 -33 -72c-31 -18 -59 -8 -72 -1c-10 -13 -31 -32 -68 -33c-67 -2 -58 56 -40 97l44 14l-9 -42c-9 -32 30 -21 44 15c7 15 11 34 11 34l34 10s-5 -51 19 -53c26 -1 25 53 25 58l43 7
c1 -18 2 -26 2 -34z" />
    <glyph glyph-name="shaddadammaarabicX" unicode="&#x64f;&#x651;" horiz-adv-x="0" arabic-form="isolated" 
d="M241 923c0 0 -124 -31 -137 -32c-45 -10 -103 -18 -122 26c-16 40 29 78 44 74c-12 -15 -16 -40 -7 -52c18 -21 46 -8 57 -3c-6 6 -9 11 -11 21c-21 71 133 117 158 29zM236 839c2 -28 -2 -57 -33 -72c-31 -18 -59 -8 -72 -1c-10 -13 -31 -32 -68 -33
c-67 -2 -58 56 -40 97l44 14l-9 -42c-9 -32 30 -21 44 15c7 15 11 34 11 34l34 10s-5 -51 19 -53c26 -1 25 53 25 58l43 7c1 -18 2 -26 2 -34zM184 956l-5 19c-4 16 -17 18 -36 15c-17 -4 -40 -10 -34 -30c5 -21 26 -17 42 -13z" />
    <glyph glyph-name="lamalefhamzaaboveisolatedarabi" unicode="&#xfedf;&#xfe84;" horiz-adv-x="527" arabic-form="isolated" 
d="M485 209c0 -129 -86 -209 -200 -209h-230v115h84v531h128v-531h16c24 0 54 20 66 47c13 33 11 69 11 102v384h125v-439zM195 703h-214v49h44v10c0 24 8 92 82 92c39 0 63 -17 77 -50c-8 -1 -53 -9 -53 -9c-7 9 -14 12 -22 12c-29 0 -29 -30 -29 -44v-11h115v-49z" />
    <glyph glyph-name="lamalefmaddaabovefinalarabic" unicode="&#xfee0;&#xfe82;" horiz-adv-x="597" arabic-form="final" 
d="M612 0h-36c-60 0 -114 21 -151 52h-2c-34 -34 -83 -52 -138 -52h-230v115h84v531h128v-531h16c24 0 54 20 66 47c13 33 11 69 11 102v384h125v-439c0 -11 0 -21 -1 -30c3 -39 33 -64 92 -64h36v-115zM261 731c-48 -26 -73 -34 -111 -34c-37 0 -69 14 -102 14
c-8 0 -15 1 -45 -10l-65 51c41 23 66 32 96 32c36 0 69 -15 103 -15c11 0 28 1 62 17z" />
    <glyph glyph-name="shaddadammatanarabic" unicode="&#x64c;&#x651;" horiz-adv-x="0" arabic-form="isolated" 
d="M247 925c0 0 -123 -31 -136 -34c-45 -10 -114 -18 -126 26c-14 47 29 72 30 89c1 27 -37 -20 -49 -17c-9 2 -10 11 -6 16c21 29 61 61 94 37c20 -15 6 -40 -9 -63c-7 -12 -20 -25 -16 -39c9 -24 42 -6 53 -4c-5 6 -9 11 -12 21c-22 71 132 118 158 33zM236 839
c2 -28 -2 -57 -33 -72c-31 -18 -59 -8 -72 -1c-10 -13 -31 -32 -68 -33c-67 -2 -58 56 -40 97l44 14l-9 -42c-9 -32 30 -21 44 15c7 15 11 34 11 34l34 10s-5 -51 19 -53c26 -1 25 53 25 58l43 7c1 -18 2 -26 2 -34zM190 958l-6 20c-4 15 -16 17 -37 13
c-15 -4 -38 -11 -33 -30c7 -21 28 -15 43 -11z" />
    <glyph glyph-name="lamalefisolatedarabic" unicode="&#xfedf;&#xfe8e;" horiz-adv-x="527" arabic-form="isolated" 
d="M485 209c0 -129 -86 -209 -200 -209h-230v115h84v531h128v-531h16c24 0 54 20 66 47c13 33 11 69 11 102v384h125v-439z" />
    <glyph glyph-name="lamaleffinalarabic" unicode="&#xfee0;&#xfe8e;" horiz-adv-x="597" arabic-form="final" 
d="M612 0h-36c-60 0 -114 21 -151 52h-2c-34 -34 -83 -52 -138 -52h-230v115h84v531h128v-531h16c24 0 54 20 66 47c13 33 11 69 11 102v384h125v-439c0 -11 0 -21 -1 -30c3 -39 33 -64 92 -64h36v-115z" />
    <glyph glyph-name="lamalefhamzaabovefinalarabicX" unicode="&#xfee0;&#xfe84;" horiz-adv-x="597" arabic-form="final" 
d="M612 0h-36c-60 0 -114 21 -151 52h-2c-34 -34 -83 -52 -138 -52h-230v115h84v531h128v-531h16c24 0 54 20 66 47c13 33 11 69 11 102v384h125v-439c0 -11 0 -21 -1 -30c3 -39 33 -64 92 -64h36v-115zM195 703h-214v49h44v10c0 24 8 92 82 92c39 0 63 -17 77 -50
c-8 -1 -53 -9 -53 -9c-7 9 -14 12 -22 12c-29 0 -29 -30 -29 -44v-11h115v-49z" />
    <glyph glyph-name="lamalefhamzabelowisolatedarabi" unicode="&#xfedf;&#xfe88;" horiz-adv-x="527" arabic-form="isolated" 
d="M485 209c0 -129 -86 -209 -200 -209h-230v115h84v531h128v-531h16c24 0 54 20 66 47c13 33 11 69 11 102v384h125v-439zM195 -201h-214v51h44v8c0 25 8 92 82 92c39 0 63 -16 77 -49c-8 -1 -53 -10 -53 -10c-7 10 -14 13 -22 13c-29 0 -29 -29 -29 -44v-10h115v-51z" />
    <glyph glyph-name="lamalefhamzabelowfinalarabicX" unicode="&#xfee0;&#xfe88;" horiz-adv-x="597" arabic-form="final" 
d="M612 0h-36c-60 0 -114 21 -151 52h-2c-34 -34 -83 -52 -138 -52h-230v115h84v531h128v-531h16c24 0 54 20 66 47c13 33 11 69 11 102v384h125v-439c0 -11 0 -21 -1 -30c3 -39 33 -64 92 -64h36v-115zM195 -201h-214v51h44v8c0 25 8 92 82 92c39 0 63 -16 77 -49
c-8 -1 -53 -10 -53 -10c-7 10 -14 13 -22 13c-29 0 -29 -29 -29 -44v-10h115v-51z" />
    <glyph glyph-name="lamalefmaddaaboveisolatedarabi" unicode="&#xfedf;&#xfe82;" horiz-adv-x="527" arabic-form="isolated" 
d="M485 209c0 -129 -86 -209 -200 -209h-230v115h84v531h128v-531h16c24 0 54 20 66 47c13 33 11 69 11 102v384h125v-439zM261 731c-48 -26 -73 -34 -111 -34c-37 0 -69 14 -102 14c-8 0 -15 1 -45 -10l-65 51c41 23 66 32 96 32c36 0 69 -15 103 -15c11 0 28 1 62 17z" />
    <glyph glyph-name="alefmaddaabovearabic" unicode="&#x627;&#x653;" horiz-adv-x="221" 
d="M180 0h-125v648h125v-648zM261 731c-48 -26 -73 -34 -111 -34c-37 0 -69 14 -102 14c-8 0 -15 1 -45 -10l-65 51c41 23 66 32 96 32c36 0 69 -15 103 -15c11 0 28 1 62 17z" />
    <glyph glyph-name="alefhamzaabovearabic" unicode="&#x627;&#x654;" horiz-adv-x="221" 
d="M180 0h-125v648h125v-648zM195 703h-214v49h44v10c0 24 8 92 82 92c39 0 63 -17 77 -50c-8 -1 -53 -9 -53 -9c-7 9 -14 12 -22 12c-29 0 -29 -30 -29 -44v-11h115v-49z" />
    <glyph glyph-name="wawhamzaabovearabic" unicode="&#x648;&#x654;" horiz-adv-x="505" 
d="M463 32c0 -139 -89 -214 -222 -209l1 104c48 0 128 17 125 110c-15 -25 -49 -65 -120 -65c-130 0 -192 83 -192 245c0 157 73 249 203 249h205v-434zM338 214v141h-71c-73 0 -87 -84 -87 -136c0 -54 1 -137 80 -137c81 0 78 76 78 132zM388 540h-242v57h49v11
c0 27 10 103 94 103c42 0 71 -19 86 -55c-9 -3 -60 -13 -60 -13c-8 11 -15 16 -25 16c-32 0 -33 -35 -33 -51v-11h131v-57z" />
    <glyph glyph-name="alefhamzabelowarabic" unicode="&#x627;&#x655;" horiz-adv-x="221" 
d="M180 0h-125v648h125v-648zM195 -201h-214v51h44v8c0 25 8 92 82 92c39 0 63 -16 77 -49c-8 -1 -53 -10 -53 -10c-7 10 -14 13 -22 13c-29 0 -29 -29 -29 -44v-10h115v-51z" />
    <glyph glyph-name="yehhamzaabovearabic" unicode="&#x64a;&#x654;" horiz-adv-x="879" 
d="M837 219l-125 -64v186c-37 0 -80 -21 -80 -107v-234h-577c5 65 11 170 47 250c55 125 140 189 319 187v-107c-88 0 -150 -10 -196 -95c-19 -36 -30 -89 -35 -120h317v131c0 209 176 220 330 220v-247zM252 455h-242v56h49v10c0 28 10 103 94 103c42 0 71 -18 86 -53
c-9 -3 -60 -13 -60 -13c-9 11 -15 15 -24 15c-33 0 -33 -34 -33 -51v-11h130v-56z" />
    <glyph glyph-name="allahisolated" unicode="&#xfedf;&#xfee0;&#xfeea;" horiz-adv-x="1229" arabic-form="isolated" 
d="M1187 199c0 -123 -96 -199 -251 -199h-19c-62 0 -112 18 -151 49c-36 -33 -88 -49 -148 -49h-361c-87 0 -202 60 -202 230c0 159 74 236 202 236h206v-351h155c52 0 81 28 81 72v459h126v-462c0 -42 30 -69 92 -69h19c86 0 126 32 126 91v440h125v-447zM338 115v241h-74
c-69 0 -84 -76 -84 -126c0 -57 32 -115 84 -115h74zM860 811c1 -28 -3 -58 -33 -73c-33 -16 -60 -8 -73 -1c-10 -11 -32 -32 -68 -32c-67 -1 -57 55 -40 98l44 13s-6 -24 -11 -42c-8 -33 31 -21 46 14c5 15 9 35 9 35l36 9s-7 -50 18 -53c28 -1 25 53 26 59l43 6
c1 -17 1 -25 3 -33z" />
    <glyph glyph-name="behinitialarabic" unicode="&#x628;" horiz-adv-x="278" arabic-form="initial" 
d="M236 199c0 -123 -96 -199 -251 -199v115c86 0 126 31 126 90v262h125v-268zM205 -202h-127v125h127v-125z" />
    <glyph glyph-name="tehinitialarabic" unicode="&#x62a;" horiz-adv-x="278" arabic-form="initial" 
d="M243 554h-100v125h100v-125zM93 554h-100v125h100v-125zM236 199c0 -123 -96 -199 -251 -199v115c86 0 126 31 126 90v262h125v-268z" />
    <glyph glyph-name="thehinitialarabic" unicode="&#x62b;" horiz-adv-x="278" arabic-form="initial" 
d="M154 720h-100v109h100v-109zM230 554h-101v125h101v-125zM80 554h-101v125h101v-125zM236 199c0 -123 -96 -199 -251 -199v115c86 0 126 31 126 90v262h125v-268z" />
    <glyph glyph-name="jeeminitialarabic" unicode="&#x62c;" horiz-adv-x="480" arabic-form="initial" 
d="M439 0h-454v115h326c-10 252 -255 238 -255 238v112c273 0 383 -171 383 -369v-96zM287 -202h-125v125h125v-125z" />
    <glyph glyph-name="hahinitialarabic" unicode="&#x62d;" horiz-adv-x="480" arabic-form="initial" 
d="M439 0h-454v115h326c-10 252 -255 238 -255 238v112c273 0 383 -171 383 -369v-96z" />
    <glyph glyph-name="khahinitialarabic" unicode="&#x62e;" horiz-adv-x="480" arabic-form="initial" 
d="M268 554h-125v125h125v-125zM439 0h-454v115h326c-10 252 -255 238 -255 238v112c273 0 383 -171 383 -369v-96z" />
    <glyph glyph-name="seeninitialarabic" unicode="&#x633;" horiz-adv-x="839" arabic-form="initial" 
d="M798 172c0 -112 -65 -172 -173 -172h-642v115h158v352h122v-352h162v352h127v-352h70c36 0 52 3 52 94v258h124v-295z" />
    <glyph glyph-name="sheeninitialarabic" unicode="&#x634;" horiz-adv-x="839" arabic-form="initial" 
d="M798 172c0 -112 -65 -172 -173 -172h-642v115h158v352h122v-352h162v352h127v-352h70c36 0 52 3 52 94v258h124v-295zM611 554h-101v125h101v-125zM461 554h-100v125h100v-125zM535 720h-102v109h102v-109z" />
    <glyph glyph-name="tahinitialarabic" unicode="&#x637;" horiz-adv-x="646" arabic-form="initial" 
d="M605 243c0 -78 -43 -243 -227 -243h-393v115h75v468h127l-11 -267c49 72 122 138 228 138c145 0 202 -121 201 -211zM480 246c0 50 -26 98 -79 98c-119 0 -180 -141 -211 -229h189c72 0 101 55 101 131z" />
    <glyph glyph-name="zahinitialarabic" unicode="&#x638;" horiz-adv-x="646" arabic-form="initial" 
d="M445 521h-126v125h126v-125zM605 243c0 -78 -43 -243 -227 -243h-393v115h75v468h127l-11 -267c49 72 122 138 228 138c145 0 202 -121 201 -211zM480 246c0 50 -26 98 -79 98c-119 0 -180 -141 -211 -229h189c72 0 101 55 101 131z" />
    <glyph glyph-name="aininitialarabic" unicode="&#x639;" horiz-adv-x="510" arabic-form="initial" 
d="M469 0h-484v115h93c-20 33 -31 71 -31 128c0 62 33 234 203 234c85 0 146 -45 175 -117c-30 -7 -124 -26 -124 -26c-8 19 -29 32 -48 32c-67 0 -80 -84 -80 -120c0 -76 40 -131 95 -131h164z" />
    <glyph glyph-name="ghaininitialarabic" unicode="&#x63a;" horiz-adv-x="510" arabic-form="initial" 
d="M308 521h-125v125h125v-125zM469 0h-484v115h93c-20 33 -31 71 -31 128c0 62 33 234 203 234c85 0 146 -45 175 -117c-30 -7 -124 -26 -124 -26c-8 19 -29 32 -48 32c-67 0 -80 -84 -80 -120c0 -76 40 -131 95 -131h164z" />
    <glyph glyph-name="fehinitialarabic" unicode="&#x641;" horiz-adv-x="542" arabic-form="initial" 
d="M352 554h-127v125h127v-125zM500 232c0 -154 -77 -232 -211 -232h-310v115h132c-27 18 -34 73 -34 120c0 150 78 242 212 242c133 0 211 -91 211 -245zM373 234c0 107 -32 136 -84 136c-51 0 -84 -29 -84 -135c0 -99 30 -120 84 -120c53 0 84 22 84 119z" />
    <glyph glyph-name="qafinitialarabic" unicode="&#x642;" horiz-adv-x="542" arabic-form="initial" 
d="M422 554h-111v125h111v-125zM261 554h-113v125h113v-125zM500 232c0 -154 -77 -232 -211 -232h-310v115h132c-24 25 -34 73 -34 120c0 150 78 242 212 242c133 0 211 -91 211 -245zM373 234c0 107 -32 136 -84 136c-51 0 -84 -29 -84 -135c0 -99 30 -120 84 -120
c53 0 84 22 84 119z" />
    <glyph glyph-name="kafinitialarabic" unicode="&#x643;" horiz-adv-x="542" arabic-form="initial" 
d="M500 0h-521v115h396v121c0 57 -16 84 -68 84h-303v156c0 104 84 170 205 170h197v-115h-197c-58 0 -84 -26 -84 -57v-38h187c127 0 188 -70 188 -197v-239z" />
    <glyph glyph-name="laminitialarabic" unicode="&#x644;" horiz-adv-x="278" arabic-form="initial" 
d="M236 199c0 -123 -96 -199 -251 -199v115c86 0 126 32 126 91v440h125v-447z" />
    <glyph glyph-name="meeminitialarabic" unicode="&#x645;" horiz-adv-x="558" arabic-form="initial" 
d="M517 249c0 -151 -76 -249 -213 -249c-62 0 -117 21 -149 74c-29 -55 -93 -74 -170 -74v115c106 0 103 99 106 165c7 132 88 219 213 219c136 0 213 -100 213 -250zM389 246c0 111 -34 147 -85 147c-50 0 -84 -36 -84 -146c0 -105 33 -141 84 -141s85 37 85 140z" />
    <glyph glyph-name="nooninitialarabic" unicode="&#x646;" horiz-adv-x="278" arabic-form="initial" 
d="M235 554h-125v125h125v-125zM236 199c0 -123 -96 -199 -251 -199v115c86 0 126 31 126 90v262h125v-268z" />
    <glyph glyph-name="hehinitialarabic" unicode="&#x647;" horiz-adv-x="621" arabic-form="initial" 
d="M580 0h-595v115h70v167c0 115 84 199 205 221v77h114v-77c121 -20 206 -106 206 -221v-282zM461 115v167c0 66 -57 93 -87 107v-274h87zM260 115v273c-30 -13 -85 -40 -85 -106v-167h85z" />
    <glyph glyph-name="yehinitialarabic" unicode="&#x64a;" horiz-adv-x="278" arabic-form="initial" 
d="M236 199c0 -122 -83 -198 -236 -199v0h-10v115h10v0c84 2 111 32 111 90v262h125v-268zM214 -202h-111v125h111v-125zM54 -202h-112v125h112v-125z" />
    <glyph glyph-name="yehhamzaabovemedialarabic" unicode="&#x626;" horiz-adv-x="341" arabic-form="medial" 
d="M231 554h-226v56h44v11c0 28 10 104 95 104c42 0 70 -20 86 -55c-10 -2 -61 -13 -61 -13c-8 11 -15 15 -23 15c-33 0 -33 -34 -33 -49v-13h118v-56zM356 0h-36c-62 0 -112 18 -151 49c-36 -33 -88 -49 -148 -49h-36v115h36c52 0 81 28 81 72v280h126v-283
c0 -42 30 -69 92 -69h36v-115z" />
    <glyph glyph-name="behmedialarabic" unicode="&#x628;" horiz-adv-x="341" arabic-form="medial" 
d="M356 0h-36c-62 0 -112 18 -151 49c-36 -33 -88 -49 -148 -49h-36v115h36c52 0 81 28 81 72v280h126v-283c0 -42 30 -69 92 -69h36v-115zM235 -202h-126v125h126v-125z" />
    <glyph glyph-name="tehmedialarabic" unicode="&#x62a;" horiz-adv-x="341" arabic-form="medial" 
d="M227 554h-102v125h102v-125zM77 554h-102v125h102v-125zM356 0h-36c-62 0 -112 18 -151 49c-36 -33 -88 -49 -148 -49h-36v115h36c52 0 81 28 81 72v280h126v-283c0 -42 30 -69 92 -69h36v-115z" />
    <glyph glyph-name="thehmedialarabic" unicode="&#x62b;" horiz-adv-x="341" arabic-form="medial" 
d="M162 720h-100v109h100v-109zM239 554h-100v125h100v-125zM89 554h-101v125h101v-125zM356 0h-36c-62 0 -112 18 -151 49c-36 -33 -88 -49 -148 -49h-36v115h36c52 0 81 28 81 72v280h126v-283c0 -42 30 -69 92 -69h36v-115z" />
    <glyph glyph-name="jeemmedialarabic" unicode="&#x62c;" arabic-form="medial" 
d="M565 0h-569v115h315c-10 252 -255 236 -255 236v111c263 0 374 -157 381 -347h128v-115zM287 -202h-125v125h125v-125z" />
    <glyph glyph-name="hahmedialarabic" unicode="&#x62d;" arabic-form="medial" 
d="M565 0h-569v115h315c-10 252 -255 236 -255 236v111c263 0 374 -157 381 -347h128v-115z" />
    <glyph glyph-name="khahmedialarabic" unicode="&#x62e;" arabic-form="medial" 
d="M268 554h-125v125h125v-125zM565 0h-569v115h315c-10 252 -255 236 -255 236v111c263 0 374 -157 381 -347h128v-115z" />
    <glyph glyph-name="seenmedialarabic" unicode="&#x633;" horiz-adv-x="903" arabic-form="medial" 
d="M916 0h-932v115h158v352h122v-352h162v352h127v-352h122v352h124l1 -352h116v-115z" />
    <glyph glyph-name="sheenmedialarabic" unicode="&#x634;" horiz-adv-x="903" arabic-form="medial" 
d="M916 0h-932v115h158v352h122v-352h162v352h127v-352h122v352h124l1 -352h116v-115zM612 554h-101v125h101v-125zM462 554h-100v125h100v-125zM536 720h-102v109h102v-109z" />
    <glyph glyph-name="sadmedialarabic" unicode="&#x635;" horiz-adv-x="782" arabic-form="medial" 
d="M786 0h-803v115h158v352h122v-184c48 85 127 173 249 173c145 0 202 -122 202 -211c-1 -33 -8 -83 -31 -130h103v-115zM588 247c0 50 -26 98 -79 98c-119 0 -180 -140 -211 -230h189c73 0 101 57 101 132z" />
    <glyph glyph-name="dadmedialarabic" unicode="&#x636;" horiz-adv-x="782" arabic-form="medial" 
d="M786 0h-803v115h158v352h122v-184c48 85 127 173 249 173c145 0 202 -122 202 -211c-1 -33 -8 -83 -31 -130h103v-115zM588 247c0 50 -26 98 -79 98c-119 0 -180 -140 -211 -230h189c73 0 101 57 101 132zM569 521h-126v125h126v-125z" />
    <glyph glyph-name="tahmedialarabic" unicode="&#x637;" horiz-adv-x="671" arabic-form="medial" 
d="M686 0h-701v115h75v468h127l-11 -267c49 72 122 138 228 138c145 0 202 -121 201 -211c0 -33 -7 -82 -30 -128h111v-115zM480 246c0 50 -26 98 -79 98c-119 0 -180 -141 -211 -229h195c66 0 95 58 95 131z" />
    <glyph glyph-name="zahmedialarabic" unicode="&#x638;" horiz-adv-x="671" arabic-form="medial" 
d="M445 521h-126v125h126v-125zM686 0h-701v115h75v468h127l-11 -267c49 72 122 138 228 138c145 0 202 -121 201 -211c0 -33 -7 -82 -30 -128h111v-115zM480 246c0 50 -26 98 -79 98c-119 0 -180 -141 -211 -229h195c66 0 95 58 95 131z" />
    <glyph glyph-name="ainmedialarabic" unicode="&#x639;" horiz-adv-x="665" arabic-form="medial" 
d="M681 0h-251c-31 0 -66 4 -97 14c-33 -10 -66 -14 -98 -14h-250v115h199l-126 110c0 143 103 256 275 256s275 -113 275 -256l-127 -110h200v-115zM474 257c-4 59 -57 113 -140 114c-82 3 -139 -53 -143 -114c36 -33 110 -98 142 -124z" />
    <glyph glyph-name="ghainmedialarabic" unicode="&#x63a;" horiz-adv-x="665" arabic-form="medial" 
d="M397 554h-125v125h125v-125zM681 0h-251c-31 0 -66 4 -97 14c-33 -10 -66 -14 -98 -14h-250v115h199l-126 110c0 143 103 256 275 256s275 -113 275 -256l-127 -110h200v-115zM474 257c-4 59 -57 113 -140 114c-82 3 -139 -53 -143 -114c36 -33 110 -98 142 -124z" />
    <glyph glyph-name="fehmedialarabic" unicode="&#x641;" horiz-adv-x="505" arabic-form="medial" 
d="M316 554h-125v125h125v-125zM514 0h-148c-40 0 -77 5 -113 16c-37 -11 -74 -16 -113 -16h-155v115h121c-46 49 -79 120 -69 192c15 93 87 174 216 174s201 -81 214 -174c11 -72 -23 -143 -68 -192h115v-115zM341 302c-7 42 -43 75 -88 75c-47 0 -83 -32 -89 -75
c-10 -60 30 -126 89 -160c59 34 99 99 88 160z" />
    <glyph glyph-name="qafmedialarabic" unicode="&#x642;" horiz-adv-x="505" arabic-form="medial" 
d="M389 554h-113v125h113v-125zM228 554h-113v125h113v-125zM520 0h-154c-40 0 -77 5 -113 16c-37 -11 -74 -16 -113 -16h-155v115h121c-46 49 -79 120 -69 192c15 93 87 174 216 174s201 -81 214 -174c11 -72 -23 -143 -68 -192h121v-115zM341 302c-7 42 -43 75 -88 75
c-47 0 -83 -32 -89 -75c-10 -60 30 -126 89 -160c59 34 99 99 88 160z" />
    <glyph glyph-name="kafmedialarabic" unicode="&#x643;" horiz-adv-x="572" arabic-form="medial" 
d="M587 0h-602v115h390v121c0 57 -16 84 -68 84h-303v156c0 104 84 170 205 170h197v-115h-197c-58 0 -84 -26 -84 -57v-38h187c127 0 188 -70 188 -197v-124h87v-115z" />
    <glyph glyph-name="lammedialarabic" unicode="&#x644;" horiz-adv-x="341" arabic-form="medial" 
d="M356 0h-36c-62 0 -112 18 -151 49c-36 -33 -88 -49 -148 -49h-36v115h36c52 0 81 28 81 72v459h126v-462c0 -42 30 -69 92 -69h36v-115z" />
    <glyph glyph-name="meemmedialarabic" unicode="&#x645;" horiz-adv-x="641" arabic-form="medial" 
d="M656 0c-52 0 -109 3 -156 27c-34 -71 -97 -112 -185 -112c-85 1 -150 40 -184 107c-31 -15 -69 -22 -110 -22h-36v115c49 3 108 2 113 62c8 145 83 238 217 238c139 0 213 -107 213 -238c0 -42 30 -62 92 -62h36v-115zM400 165c0 109 -34 144 -85 144s-85 -35 -85 -141
c0 -103 34 -138 85 -138s85 36 85 135z" />
    <glyph glyph-name="noonmedialarabic" unicode="&#x646;" horiz-adv-x="341" arabic-form="medial" 
d="M227 554h-127v125h127v-125zM356 0h-36c-62 0 -112 18 -151 49c-36 -33 -88 -49 -148 -49h-36v115h36c52 0 81 28 81 72v280h126v-283c0 -42 30 -69 92 -69h36v-115z" />
    <glyph glyph-name="hehmedialarabic" unicode="&#x647;" horiz-adv-x="621" arabic-form="medial" 
d="M641 0h-706v115h120v167c0 115 84 199 205 221v77h114v-77c121 -20 206 -106 206 -221v-167h61v-115zM461 115v167c0 66 -57 93 -87 107v-274h87zM260 115v273c-30 -13 -85 -40 -85 -106v-167h85z" />
    <glyph glyph-name="yehmedialarabic" unicode="&#x64a;" horiz-adv-x="341" arabic-form="medial" 
d="M356 0h-36c-62 0 -112 18 -151 49c-36 -33 -88 -49 -148 -49h-36v115h36c52 0 81 28 81 72v279h126v-282c0 -42 30 -69 92 -69h36v-115zM221 -202h-111v125h111v-125zM60 -202h-111v125h111v-125z" />
    <glyph glyph-name="alefmaddaabovefinalarabic" unicode="&#x622;" horiz-adv-x="269" arabic-form="final" 
d="M294 0c-157 0 -239 78 -239 205v443h125v-440c0 -61 28 -93 114 -93v-115zM261 731c-48 -26 -73 -34 -111 -34c-37 0 -69 14 -102 14c-8 0 -15 1 -45 -10l-65 51c41 23 66 32 96 32c36 0 69 -15 103 -15c11 0 28 1 62 17z" />
    <glyph glyph-name="alefhamzaabovefinalarabic" unicode="&#x623;" horiz-adv-x="269" arabic-form="final" 
d="M294 0c-157 0 -239 78 -239 205v443h125v-440c0 -61 28 -93 114 -93v-115zM195 703h-214v49h44v10c0 24 8 92 82 92c39 0 63 -17 77 -50c-8 -1 -53 -9 -53 -9c-7 9 -14 12 -22 12c-29 0 -29 -30 -29 -44v-11h115v-49z" />
    <glyph glyph-name="wawhamzaabovefinalarabic" unicode="&#x624;" horiz-adv-x="566" arabic-form="final" 
d="M582 0h-120c-15 -111 -102 -182 -204 -188l-22 -2v116c51 1 91 33 95 74h-75c-88 0 -201 51 -201 220c0 159 73 247 201 247h207v-352h119v-115zM338 115v240h-80c-68 0 -78 -84 -78 -135c0 -56 26 -105 78 -105h80zM388 540h-242v57h49v11c0 27 10 103 94 103
c42 0 71 -19 86 -55c-9 -3 -60 -13 -60 -13c-8 11 -15 16 -25 16c-32 0 -33 -35 -33 -51v-11h131v-57z" />
    <glyph glyph-name="alefhamzabelowfinalarabic" unicode="&#x625;" horiz-adv-x="269" arabic-form="final" 
d="M294 0c-157 0 -239 78 -239 205v443h125v-440c0 -61 28 -93 114 -93v-115zM195 -201h-214v51h44v8c0 25 8 92 82 92c39 0 63 -16 77 -49c-8 -1 -53 -10 -53 -10c-7 10 -14 13 -22 13c-29 0 -29 -29 -29 -44v-10h115v-51z" />
    <glyph glyph-name="yehhamzaabovefinalarabic" unicode="&#x626;" horiz-adv-x="894" arabic-form="final" 
d="M909 0h-250v341c-38 0 -80 -21 -80 -107v-234h-578c6 65 11 170 46 250c56 125 141 189 320 187v-107c-89 0 -150 -10 -197 -95c-17 -36 -28 -89 -35 -120h319v131c0 209 176 220 328 220v-351h127v-115zM198 455h-242v56h49v10c0 28 10 103 94 103c43 0 71 -18 87 -53
c-10 -3 -61 -13 -61 -13c-8 11 -15 15 -25 15c-31 0 -31 -34 -31 -51v-11h129v-56z" />
    <glyph glyph-name="aleffinalarabic" unicode="&#x627;" horiz-adv-x="269" arabic-form="final" 
d="M294 0c-157 0 -239 78 -239 205v443h125v-440c0 -61 28 -93 114 -93v-115z" />
    <glyph glyph-name="behfinalarabic" unicode="&#x628;" horiz-adv-x="784" arabic-form="final" 
d="M799 0h-15c-66 0 -128 26 -158 67c-38 -42 -95 -66 -170 -67h-182c-137 0 -219 78 -219 206v261h125v-258c0 -63 22 -94 87 -94h189c64 0 91 32 91 94v258h125v-270c6 -53 47 -82 112 -82h15v-115zM436 -202h-127v125h127v-125z" />
    <glyph glyph-name="tehmarbutafinalarabic" unicode="&#x629;" horiz-adv-x="595" arabic-form="final" 
d="M441 554h-112v125h112v-125zM279 554h-111v125h111v-125zM610 0h-353c-87 0 -202 60 -202 230c0 159 74 236 202 236h206v-351h147v-115zM338 115v241h-74c-69 0 -84 -76 -84 -126c0 -57 32 -115 84 -115h74z" />
    <glyph glyph-name="tehfinalarabic" unicode="&#x62a;" horiz-adv-x="784" arabic-form="final" 
d="M499 554h-111v125h111v-125zM338 554h-111v125h111v-125zM799 0h-15c-66 0 -128 26 -158 67c-38 -42 -95 -66 -170 -67h-182c-137 0 -219 78 -219 206v261h125v-258c0 -63 22 -94 87 -94h189c64 0 91 32 91 94v258h125v-270c6 -53 47 -82 112 -82h15v-115z" />
    <glyph glyph-name="thehfinalarabic" unicode="&#x62b;" horiz-adv-x="784" arabic-form="final" 
d="M418 720h-111v126h111v-126zM500 554h-111v125h111v-125zM340 554h-113v125h113v-125zM799 0h-15c-66 0 -128 26 -158 67c-38 -42 -95 -66 -170 -67h-182c-137 0 -219 78 -219 206v261h125v-258c0 -63 22 -94 87 -94h189c64 0 91 32 91 94v258h125v-270
c6 -53 47 -82 112 -82h15v-115z" />
    <glyph glyph-name="jeemfinalarabic" unicode="&#x62c;" horiz-adv-x="671" arabic-form="final" 
d="M686 0c-133 0 -278 -1 -411 0c-70 1 -98 -50 -98 -96v-81h-122v81c0 84 48 211 220 211h157c-11 256 -255 237 -255 237v113c263 0 374 -157 381 -350h128v-115zM428 -177h-126v126h126v-126z" />
    <glyph glyph-name="hahfinalarabic" unicode="&#x62d;" horiz-adv-x="671" arabic-form="final" 
d="M686 0c-133 0 -278 -1 -411 0c-70 1 -98 -50 -98 -96v-81h-122v81c0 84 48 211 220 211h157c-11 256 -255 237 -255 237v113c263 0 374 -157 381 -350h128v-115z" />
    <glyph glyph-name="khahfinalarabic" unicode="&#x62e;" horiz-adv-x="671" arabic-form="final" 
d="M385 521h-125v128h125v-128zM686 0c-133 0 -278 -1 -411 0c-70 1 -98 -50 -98 -96v-81h-122v81c0 84 48 211 220 211h157c-11 256 -255 237 -255 237v113c263 0 374 -157 381 -350h128v-115z" />
    <glyph glyph-name="dalfinalarabic" unicode="&#x62f;" horiz-adv-x="503" arabic-form="final" 
d="M518 0h-463v115h212v135c0 90 -22 113 -83 113l22 111c128 0 184 -62 184 -183v-176h128v-115z" />
    <glyph glyph-name="thalfinalarabic" unicode="&#x630;" horiz-adv-x="503" arabic-form="final" 
d="M330 554h-125v125h125v-125zM518 0h-463v115h212v135c0 90 -22 113 -83 113l22 111c128 0 184 -62 184 -183v-176h128v-115z" />
    <glyph glyph-name="rehfinalarabic" unicode="&#x631;" horiz-adv-x="335" arabic-form="final" 
d="M351 0h-16c-17 0 -83 4 -114 30c0 -107 -71 -214 -221 -209v112c102 0 98 83 98 151v383h123s0 -171 2 -262c0 -63 45 -90 112 -90h16v-115z" />
    <glyph glyph-name="zainfinalarabic" unicode="&#x632;" horiz-adv-x="335" arabic-form="final" 
d="M220 521h-125v125h125v-125zM351 0h-5c-17 0 -94 4 -125 30c0 -107 -71 -214 -221 -209v112c102 0 98 83 98 151v383h123s0 -171 2 -262c0 -63 56 -90 123 -90h5v-115z" />
    <glyph glyph-name="seenfinalarabic" unicode="&#x633;" horiz-adv-x="1124" arabic-form="final" 
d="M1137 0h-654c-11 -106 -92 -177 -200 -179c-12 0 -18 -1 -27 0c-116 2 -201 85 -201 206v302h125v-299c0 -60 28 -92 91 -92s88 32 88 92v437h126v-352h162v352h127v-352h122v352h124l1 -352h116v-115z" />
    <glyph glyph-name="sheenfinalarabic" unicode="&#x634;" horiz-adv-x="1124" arabic-form="final" 
d="M1137 0h-654c-11 -106 -92 -177 -200 -179c-12 0 -18 -1 -27 0c-116 2 -201 85 -201 206v302h125v-299c0 -60 28 -92 91 -92s88 32 88 92v437h126v-352h162v352h127v-352h122v352h124l1 -352h116v-115zM833 554h-101v125h101v-125zM683 554h-100v125h100v-125zM757 720
h-102v109h102v-109z" />
    <glyph glyph-name="sadfinalarabic" unicode="&#x635;" horiz-adv-x="1005" arabic-form="final" 
d="M1009 0h-526c-11 -106 -92 -177 -200 -179c-12 0 -18 -1 -27 0c-116 2 -201 85 -201 206v302h125v-299c0 -60 28 -92 91 -92s88 32 88 92v437h126v-186c48 85 127 175 250 175c145 0 202 -122 202 -211c-1 -33 -8 -83 -31 -130h103v-115zM811 247c0 50 -26 98 -79 98
c-119 0 -180 -140 -211 -230h189c73 0 101 57 101 132z" />
    <glyph glyph-name="dadfinalarabic" unicode="&#x636;" horiz-adv-x="1005" arabic-form="final" 
d="M1009 0h-526c-11 -106 -92 -177 -200 -179c-12 0 -18 -1 -27 0c-116 2 -201 85 -201 206v302h125v-299c0 -60 28 -92 91 -92s88 32 88 92v437h126v-186c48 85 127 175 250 175c145 0 202 -122 202 -211c-1 -33 -8 -83 -31 -130h103v-115zM811 247c0 50 -26 98 -79 98
c-119 0 -180 -140 -211 -230h189c73 0 101 57 101 132zM792 521h-126v125h126v-125z" />
    <glyph glyph-name="tahfinalarabic" unicode="&#x637;" horiz-adv-x="759" arabic-form="final" 
d="M774 0h-719l37 115h56v468h127l-11 -267c49 72 122 138 228 138c145 0 201 -121 201 -211c0 -33 -7 -82 -30 -128h111v-115zM568 246c0 50 -26 98 -80 98c-118 0 -179 -141 -210 -229h188c73 0 102 55 102 131z" />
    <glyph glyph-name="zahfinalarabic" unicode="&#x638;" horiz-adv-x="759" arabic-form="final" 
d="M533 521h-126v125h126v-125zM774 0h-719l37 115h56v468h127l-11 -267c49 72 122 138 228 138c145 0 201 -121 201 -211c0 -33 -7 -82 -30 -128h111v-115zM568 246c0 50 -26 98 -80 98c-118 0 -179 -141 -210 -229h188c73 0 102 55 102 131z" />
    <glyph glyph-name="ainfinalarabic" unicode="&#x639;" horiz-adv-x="718" arabic-form="final" 
d="M733 0h-250c-32 0 -66 4 -98 14c-33 -10 -66 -15 -98 -14l-12 1c-70 0 -98 -53 -98 -96v-82h-122v82c0 63 40 187 161 210h19l-125 110c0 143 103 256 275 256s275 -113 275 -256l-127 -110h200v-115zM527 257c-5 59 -58 113 -141 114c-82 3 -139 -53 -143 -114
c35 -33 110 -98 142 -124z" />
    <glyph glyph-name="ghainfinalarabic" unicode="&#x63a;" horiz-adv-x="718" arabic-form="final" 
d="M448 554h-126v125h126v-125zM733 0h-250c-32 0 -66 4 -98 14c-33 -10 -66 -15 -98 -14l-12 1c-70 0 -98 -53 -98 -96v-82h-122v82c0 63 40 187 161 210h19l-125 110c0 143 103 256 275 256s275 -113 275 -256l-127 -110h200v-115zM527 257c-5 59 -58 113 -141 114
c-82 3 -139 -53 -143 -114c35 -33 110 -98 142 -124z" />
    <glyph glyph-name="fehfinalarabic" unicode="&#x641;" horiz-adv-x="818" arabic-form="final" 
d="M626 554h-126v125h126v-125zM833 0h-155c-39 0 -77 5 -113 16c-36 -11 -73 -16 -111 -16h-176c-136 0 -223 78 -223 206v202h125v-199c0 -63 32 -94 96 -94h143c-45 49 -79 120 -68 192c13 93 86 174 215 174c130 0 201 -81 215 -174c11 -72 -23 -143 -69 -192h121v-115z
M654 302c-6 42 -44 75 -89 75s-81 -32 -88 -75c-10 -60 30 -126 89 -160c60 34 98 99 88 160z" />
    <glyph glyph-name="qaffinalarabic" unicode="&#x642;" horiz-adv-x="767" arabic-form="final" 
d="M580 554h-111v125h111v-125zM419 554h-111v125h111v-125zM782 0h-151c-128 -318 -576 -197 -576 143h114c-7 -183 208 -312 319 -143h-41c-123 0 -213 69 -213 228c0 154 79 246 213 246c133 0 213 -88 213 -243v-63c0 -18 -1 -36 -3 -53h125v-115zM535 228
c0 109 -35 136 -88 136c-52 0 -88 -29 -88 -134c0 -101 33 -115 88 -115h82c10 38 6 75 6 113z" />
    <glyph glyph-name="kaffinalarabic" unicode="&#x643;" horiz-adv-x="784" arabic-form="final" 
d="M487 363h-242v56h49v11c0 28 7 123 95 123c45 0 70 -22 83 -72c-10 -1 -54 0 -54 0c-4 7 -6 18 -26 18c-36 0 -36 -49 -36 -67v-13h131v-56zM799 0h-15c-66 0 -128 26 -158 67c-38 -42 -95 -66 -170 -67h-182c-137 0 -219 78 -219 206v211h125v-208c0 -63 22 -94 87 -94
h189c64 0 91 32 91 94v437h125v-449c6 -53 47 -82 112 -82h15v-115z" />
    <glyph glyph-name="lamfinalarabic" unicode="&#x644;" horiz-adv-x="598" arabic-form="final" 
d="M613 0h-15c-44 0 -82 11 -113 30v-4c0 -121 -85 -203 -202 -205c-12 0 -18 -1 -27 0c-116 2 -201 85 -201 206v182h125v-179c0 -60 28 -92 91 -92s88 32 88 92v616h126v-445c0 -55 47 -86 113 -86h15v-115z" />
    <glyph glyph-name="meemfinalarabic" unicode="&#x645;" horiz-adv-x="737" arabic-form="final" 
d="M752 0h-23c-66 0 -131 22 -165 70v0c-36 -45 -90 -70 -160 -70h-132c-66 0 -92 -30 -92 -91v-86h-125v90c0 108 55 190 165 201c-18 39 -26 85 -26 139c0 150 77 253 210 253c135 0 212 -102 212 -254c0 -16 -1 -31 -3 -46c7 -60 47 -91 118 -91h21v-115zM489 253
c0 109 -34 144 -85 144c-49 0 -82 -35 -82 -143c0 -103 33 -139 82 -139c51 0 85 36 85 138z" />
    <glyph glyph-name="noonfinalarabic" unicode="&#x646;" horiz-adv-x="598" arabic-form="final" 
d="M331 554h-126v125h126v-125zM613 0h-15c-44 0 -82 11 -113 30v0v-4c0 -121 -85 -203 -202 -205c-12 0 -18 -1 -27 0c-116 2 -201 85 -201 206v440h125v-437c0 -60 28 -92 91 -92s88 32 88 92v437h126v-268v2c0 -55 47 -86 113 -86h15v-115z" />
    <glyph glyph-name="hehfinalarabic" unicode="&#x647;" horiz-adv-x="595" arabic-form="final" 
d="M599 0h-342c-87 0 -202 60 -202 230c0 159 74 236 202 236h206v-351h136v-115zM338 115v241h-74c-69 0 -84 -76 -84 -126c0 -57 32 -115 84 -115h74z" />
    <glyph glyph-name="wawfinalarabic" unicode="&#x648;" horiz-adv-x="566" arabic-form="final" 
d="M582 0h-120c-15 -111 -102 -182 -204 -188l-22 -2v116c51 1 91 33 95 74h-75c-88 0 -201 51 -201 220c0 159 73 247 201 247h207v-352h119v-115zM338 115v240h-80c-68 0 -78 -84 -78 -135c0 -56 26 -105 78 -105h80z" />
    <glyph glyph-name="alefmaksurafinalarabic" unicode="&#x649;" horiz-adv-x="947" arabic-form="final" 
d="M962 0h-250v341c-37 0 -80 -21 -80 -107v-234h-577c5 65 11 170 47 250c55 125 140 189 319 187v-107c-88 0 -150 -10 -196 -95c-19 -36 -30 -89 -35 -120h317v131c0 209 176 220 330 220v-351h125v-115z" />
    <glyph glyph-name="yehfinalarabic" unicode="&#x64a;" horiz-adv-x="947" arabic-form="final" 
d="M962 0h-250v341c-37 0 -80 -21 -80 -107v-234h-577c5 65 11 170 47 250c55 125 140 189 319 187v-107c-88 0 -150 -10 -196 -95c-19 -36 -30 -89 -35 -120h317v131c0 209 176 220 330 220v-351h125v-115zM473 -202h-113v125h113v-125zM312 -202h-113v125h113v-125z" />
    <glyph glyph-name="yehhamzaaboveinitialarabic" unicode="&#x626;" horiz-adv-x="278" arabic-form="initial" 
d="M227 554h-244v56h51v11c-1 28 9 104 94 104c41 0 70 -20 85 -55c-10 -2 -60 -13 -60 -13c-9 11 -14 15 -24 15c-33 0 -33 -34 -33 -49v-13h131v-56zM236 199c0 -123 -96 -199 -251 -199v115c86 0 126 31 126 90v262h125v-268z" />
    <glyph glyph-name="dadinitialarabic" unicode="&#x636;" horiz-adv-x="758" arabic-form="initial" 
d="M716 245c-1 -79 -44 -245 -228 -245h-504v115h158v352h122v-186c48 85 127 175 250 175c145 0 202 -122 202 -211zM590 247c0 50 -26 98 -79 98c-119 0 -180 -140 -211 -230h188c66 0 102 57 102 132zM571 521h-126v125h126v-125z" />
    <glyph glyph-name="alefmaksurainitialarabic" unicode="&#x6cc;" horiz-adv-x="278" arabic-form="initial" 
d="M236 199c0 -122 -83 -198 -236 -199v0h-10v115h10v0c84 2 111 32 111 90v262h125v-268zM214 -202h-111v125h111v-125zM54 -202h-112v125h112v-125z" />
    <glyph glyph-name="alefmaksuramedialarabic" unicode="&#x6cc;" horiz-adv-x="341" arabic-form="medial" 
d="M356 0h-36c-62 0 -112 18 -151 49c-36 -33 -88 -49 -148 -49h-36v115h36c52 0 81 28 81 72v279h126v-282c0 -42 30 -69 92 -69h36v-115zM221 -202h-111v125h111v-125zM60 -202h-111v125h111v-125z" />
    <glyph glyph-name="sadinitialarabic" unicode="&#x635;" horiz-adv-x="758" arabic-form="initial" 
d="M716 245c-1 -79 -44 -245 -228 -245h-504v115h158v352h122v-186c48 85 127 175 250 175c145 0 202 -122 202 -211zM590 247c0 50 -26 98 -79 98c-119 0 -180 -140 -211 -230h188c66 0 102 57 102 132z" />
    <glyph glyph-name="pehinitialarabic" unicode="&#x67e;" horiz-adv-x="272" arabic-form="initial" 
d="M231 199c0 -123 -91 -199 -246 -199v113c86 0 121 31 121 90v280h125v-284zM230 -204h-101v127h101v-127zM80 -204h-101v127h101v-127zM154 -352h-100v109h100v-109z" />
    <glyph glyph-name="tchehinitialarabic" unicode="&#x686;" horiz-adv-x="480" arabic-form="initial" 
d="M439 0h-460v115h332c-10 252 -255 238 -255 238v112c273 0 383 -171 383 -369v-96zM327 -209h-102v126h102v-126zM176 -209h-100v126h100v-126zM250 -358h-100v109h100v-109z" />
    <glyph glyph-name="vehinitialarabic" unicode="&#x6a4;" horiz-adv-x="542" arabic-form="initial" 
d="M338 720h-102v109h102v-109zM414 554h-101v125h101v-125zM264 554h-102v125h102v-125zM500 232c0 -154 -77 -232 -211 -232h-304v115h113c-14 33 -21 73 -21 120c0 150 78 242 212 242c133 0 211 -91 211 -245zM373 234c0 107 -32 136 -84 136c-51 0 -84 -29 -84 -135
c0 -99 30 -120 84 -120c53 0 84 22 84 119z" />
    <glyph glyph-name="pehmedialarabic" unicode="&#x67e;" horiz-adv-x="341" arabic-form="medial" 
d="M351 0h-31c-62 1 -112 18 -151 49c-36 -33 -88 -49 -148 -49h-36v115h36c52 0 81 28 81 72v296h126v-299c0 -42 30 -69 92 -69h31v-115zM208 -209h-101v126h101v-126zM58 -209h-101v126h101v-126zM132 -358h-100v109h100v-109z" />
    <glyph glyph-name="tchehmedialarabic" unicode="&#x686;" arabic-form="medial" 
d="M565 0h-580v115h326c-10 252 -255 238 -255 238v112c263 0 374 -160 381 -350h128v-115zM373 -209h-102v126h102v-126zM221 -209h-100v126h100v-126zM296 -358h-101v109h101v-109z" />
    <glyph glyph-name="vehmedialarabic" unicode="&#x6a4;" horiz-adv-x="505" arabic-form="medial" 
d="M301 720h-100v109h100v-109zM378 554h-102v125h102v-125zM228 554h-102v125h102v-125zM520 0h-154c-40 0 -77 5 -113 16c-37 -11 -74 -16 -113 -16h-155v115h121c-46 49 -79 120 -69 192c15 93 87 174 216 174s201 -81 214 -174c11 -72 -23 -143 -68 -192h121v-115z
M341 302c-7 42 -43 75 -88 75c-47 0 -83 -32 -89 -75c-10 -60 30 -126 89 -160c59 34 99 99 88 160z" />
    <glyph glyph-name="pehfinalarabic" unicode="&#x67e;" horiz-adv-x="784" arabic-form="final" 
d="M799 0h-15c-66 0 -128 26 -158 67c-38 -42 -95 -66 -170 -67h-182c-137 0 -219 78 -219 206v261h125v-258c0 -63 22 -94 87 -94h189c64 0 91 32 91 94v258h125v-270c6 -53 47 -82 112 -82h15v-115zM495 -209h-100v126h100v-126zM345 -209h-102v126h102v-126zM419 -358
h-101v109h101v-109z" />
    <glyph glyph-name="tchehfinalarabic" unicode="&#x686;" horiz-adv-x="671" arabic-form="final" 
d="M686 0c-133 0 -278 -1 -411 0c-70 1 -98 -50 -98 -96v-81h-122v81c0 84 48 211 220 211h157c-11 256 -255 240 -255 240v114c263 0 374 -161 381 -354h128v-115zM543 -176h-100v110h100v-110zM393 -176h-100v110h100v-110zM467 -308h-100v92h100v-92z" />
    <glyph glyph-name="vehfinalarabic" unicode="&#x6a4;" horiz-adv-x="818" arabic-form="final" 
d="M617 720h-101v109h101v-109zM693 554h-100v125h100v-125zM543 554h-100v125h100v-125zM833 0h-155c-39 0 -77 5 -113 16c-36 -11 -73 -16 -111 -16h-176c-136 0 -223 78 -223 206v202h125v-199c0 -63 32 -94 96 -94h143c-45 49 -79 120 -68 192c13 93 86 174 215 174
c130 0 201 -81 215 -174c11 -72 -23 -143 -69 -192h121v-115zM654 302c-6 42 -44 75 -89 75s-81 -32 -88 -75c-10 -60 30 -126 89 -160c60 34 98 99 88 160z" />
    <glyph glyph-name="jehfinalarabic" unicode="&#x698;" horiz-adv-x="335" arabic-form="final" 
d="M351 0h-5c-17 0 -94 4 -125 30c0 -107 -71 -214 -221 -209v112c102 0 98 83 98 151v383h123s0 -171 2 -262c0 -63 56 -90 123 -90h5v-115zM143 719h-100v109h100v-109zM220 553h-102v125h102v-125zM70 553h-102v125h102v-125z" />
    <glyph glyph-name="hamzaarabic" unicode="&#x621;" horiz-adv-x="588" arabic-form="isolated" 
d="M547 0h-492v115h100v21c0 55 20 210 191 210c86 0 145 -38 175 -111l-122 -25c-17 24 -31 31 -50 31c-64 0 -66 -69 -66 -102v-24h264v-115z" />
    <glyph glyph-name="alefarabic" unicode="&#x627;" horiz-adv-x="221" arabic-form="isolated" 
d="M180 0h-125v648h125v-648z" />
    <glyph glyph-name="beharabic" unicode="&#x628;" horiz-adv-x="712" arabic-form="isolated" 
d="M671 206c0 -126 -81 -205 -216 -206h-181c-137 0 -219 78 -219 206v261h125v-258c0 -63 22 -94 87 -94h188c65 0 91 32 91 94v258h125v-261zM436 -202h-127v125h127v-125z" />
    <glyph glyph-name="tehmarbutaarabic" unicode="&#x629;" horiz-adv-x="518" arabic-form="isolated" 
d="M400 554h-113v125h113v-125zM238 554h-112v125h112v-125zM477 228c0 -152 -76 -228 -210 -228c-135 0 -212 76 -212 230c0 147 78 236 212 236c133 0 210 -89 210 -238zM351 228c0 105 -33 134 -84 134c-53 0 -84 -29 -84 -131c0 -98 30 -118 84 -118c52 0 84 20 84 115z
" />
    <glyph glyph-name="teharabic" unicode="&#x62a;" horiz-adv-x="712" arabic-form="isolated" 
d="M499 554h-111v125h111v-125zM338 554h-111v125h111v-125zM671 206c0 -126 -81 -205 -216 -206h-181c-137 0 -219 78 -219 206v261h125v-258c0 -63 22 -94 87 -94h188c65 0 91 32 91 94v258h125v-261z" />
    <glyph glyph-name="theharabic" unicode="&#x62b;" horiz-adv-x="712" arabic-form="isolated" 
d="M418 720h-111v126h111v-126zM499 554h-111v125h111v-125zM338 554h-111v125h111v-125zM671 206c0 -126 -81 -205 -216 -206h-181c-137 0 -219 78 -219 206v261h125v-258c0 -63 22 -94 87 -94h188c65 0 91 32 91 94v258h125v-261z" />
    <glyph glyph-name="jeemarabic" unicode="&#x62c;" horiz-adv-x="599" arabic-form="isolated" 
d="M558 0h-283c-70 1 -98 -50 -98 -96v-81h-122v81c0 84 48 211 220 211h157c-11 256 -255 237 -255 237v113c271 0 381 -168 381 -369v-96zM428 -177h-126v126h126v-126z" />
    <glyph glyph-name="haharabic" unicode="&#x62d;" horiz-adv-x="599" arabic-form="isolated" 
d="M558 0h-283c-70 1 -98 -50 -98 -96v-81h-122v81c0 84 48 211 220 211h157c-11 256 -255 237 -255 237v113c271 0 381 -168 381 -369v-96z" />
    <glyph glyph-name="khaharabic" unicode="&#x62e;" horiz-adv-x="599" arabic-form="isolated" 
d="M385 521h-125v128h125v-128zM558 0h-283c-70 1 -98 -50 -98 -96v-81h-122v81c0 84 48 211 220 211h157c-11 256 -255 237 -255 237v113c271 0 381 -168 381 -369v-96z" />
    <glyph glyph-name="dalarabic" unicode="&#x62f;" horiz-adv-x="432" arabic-form="isolated" 
d="M390 0h-335v115h212v135c0 90 -22 113 -83 113l22 111c128 0 184 -62 184 -183v-291z" />
    <glyph glyph-name="thalarabic" unicode="&#x630;" horiz-adv-x="432" arabic-form="isolated" 
d="M330 554h-125v125h125v-125zM390 0h-335v115h212v135c0 90 -22 113 -83 113l22 111c128 0 184 -62 184 -183v-291z" />
    <glyph glyph-name="reharabic" unicode="&#x631;" horiz-adv-x="263" arabic-form="isolated" 
d="M221 33c0 -109 -70 -217 -221 -212v112c102 0 98 83 98 151v382h123s2 -11 0 -433z" />
    <glyph glyph-name="zainarabic" unicode="&#x632;" horiz-adv-x="263" arabic-form="isolated" 
d="M220 554h-125v125h125v-125zM221 33c0 -109 -70 -217 -221 -212v112c102 0 98 83 98 151v382h123s2 -11 0 -433z" />
    <glyph glyph-name="seenarabic" unicode="&#x633;" horiz-adv-x="1061" arabic-form="isolated" 
d="M1020 172c0 -112 -65 -172 -173 -172h-364c-11 -106 -92 -177 -200 -179c-12 0 -18 -1 -27 0c-116 2 -201 85 -201 206v302h125v-299c0 -60 28 -92 91 -92s88 32 88 92v437h126v-352h162v352h127v-352h70c36 0 52 3 52 94v258h124v-295z" />
    <glyph glyph-name="sheenarabic" unicode="&#x634;" horiz-adv-x="1061" arabic-form="isolated" 
d="M1020 172c0 -112 -65 -172 -173 -172h-364c-11 -106 -92 -177 -200 -179c-12 0 -18 -1 -27 0c-116 2 -201 85 -201 206v302h125v-299c0 -60 28 -92 91 -92s88 32 88 92v437h126v-352h162v352h127v-352h70c36 0 52 3 52 94v258h124v-295zM833 554h-101v125h101v-125z
M683 554h-100v125h100v-125zM757 720h-102v109h102v-109z" />
    <glyph glyph-name="sadarabic" unicode="&#x635;" horiz-adv-x="979" arabic-form="isolated" 
d="M937 245c-1 -79 -44 -245 -228 -245h-226c-11 -106 -92 -177 -200 -179c-12 0 -18 -1 -27 0c-116 2 -201 85 -201 206v302h125v-299c0 -60 28 -92 91 -92s88 32 88 92v437h126v-186c48 85 127 175 250 175c145 0 202 -122 202 -211zM811 247c0 50 -26 98 -79 98
c-119 0 -180 -140 -211 -230h188c66 0 102 57 102 132z" />
    <glyph glyph-name="dadarabic" unicode="&#x636;" horiz-adv-x="979" arabic-form="isolated" 
d="M937 245c-1 -79 -44 -245 -228 -245h-226c-11 -106 -92 -177 -200 -179c-12 0 -18 -1 -27 0c-116 2 -201 85 -201 206v302h125v-299c0 -60 28 -92 91 -92s88 32 88 92v437h126v-186c48 85 127 175 250 175c145 0 202 -122 202 -211zM811 247c0 50 -26 98 -79 98
c-119 0 -180 -140 -211 -230h188c66 0 102 57 102 132zM792 521h-126v125h126v-125z" />
    <glyph glyph-name="taharabic" unicode="&#x637;" horiz-adv-x="734" arabic-form="isolated" 
d="M693 243c0 -78 -43 -243 -227 -243h-411l37 115h56v468h127l-11 -267c49 72 122 138 228 138c145 0 201 -121 201 -211zM568 246c0 50 -26 98 -80 98c-118 0 -179 -141 -210 -229h188c73 0 102 55 102 131z" />
    <glyph glyph-name="zaharabic" unicode="&#x638;" horiz-adv-x="734" arabic-form="isolated" 
d="M533 521h-126v125h126v-125zM693 243c0 -78 -43 -243 -227 -243h-411l37 115h56v468h127l-11 -267c49 72 122 138 228 138c145 0 201 -121 201 -211zM568 246c0 50 -26 98 -80 98c-118 0 -179 -141 -210 -229h188c73 0 102 55 102 131z" />
    <glyph glyph-name="ainarabic" unicode="&#x639;" horiz-adv-x="649" arabic-form="isolated" 
d="M608 0h-333c-70 0 -98 -52 -98 -95v-82h-122v82c0 63 38 186 161 210c-19 33 -32 71 -32 128c0 62 33 234 204 234c85 0 145 -45 174 -117c-30 -7 -122 -26 -122 -26c-10 19 -30 32 -50 32c-66 0 -79 -84 -79 -120c0 -76 40 -131 96 -131h162z" />
    <glyph glyph-name="ghainarabic" unicode="&#x63a;" horiz-adv-x="649" arabic-form="isolated" 
d="M450 554h-126v125h126v-125zM608 0h-333c-70 0 -98 -52 -98 -95v-82h-122v82c0 63 38 186 161 210c-19 33 -32 71 -32 128c0 62 33 234 204 234c85 0 145 -45 174 -117c-30 -7 -122 -26 -122 -26c-10 19 -30 32 -50 32c-66 0 -79 -84 -79 -120c0 -76 40 -131 96 -131h162
z" />
    <glyph glyph-name="feharabic" unicode="&#x641;" horiz-adv-x="795" arabic-form="isolated" 
d="M606 554h-126v125h126v-125zM753 232c0 -154 -75 -232 -210 -232h-269c-137 0 -219 78 -219 206v202h125v-199c0 -63 22 -94 87 -94h84c-13 33 -20 73 -20 120c0 150 79 242 212 242s210 -91 210 -245zM627 234c0 107 -33 136 -84 136s-84 -29 -84 -135
c0 -99 30 -120 84 -120c52 0 84 22 84 119z" />
    <glyph glyph-name="qafarabic" unicode="&#x642;" horiz-adv-x="708" arabic-form="isolated" 
d="M590 554h-113v125h113v-125zM429 554h-113v125h113v-125zM667 159c0 -479 -612 -431 -612 -20h120c0 -245 265 -278 336 -135c-30 -10 -41 -12 -57 -12c-136 0 -213 77 -213 236c0 154 79 246 213 246c133 0 213 -89 213 -243v-72zM542 228c0 107 -35 136 -88 136
s-88 -29 -88 -134c0 -101 33 -121 88 -121s88 22 88 119z" />
    <glyph glyph-name="kafarabic" unicode="&#x643;" horiz-adv-x="712" arabic-form="isolated" 
d="M487 349h-242v57h49v11c0 27 7 122 95 122c45 0 70 -22 83 -72c-10 -1 -54 0 -54 0c-4 7 -6 18 -26 18c-36 0 -36 -49 -36 -67v-12h131v-57zM671 206c0 -126 -81 -205 -216 -206h-181c-137 0 -219 78 -219 206v211h125v-208c0 -63 22 -94 87 -94h188c65 0 91 32 91 94
v437h125v-440z" />
    <glyph glyph-name="lamarabic" unicode="&#x644;" horiz-adv-x="527" arabic-form="isolated" 
d="M485 26c0 -121 -85 -203 -202 -205c-12 0 -18 -1 -27 0c-116 2 -201 85 -201 206v182h125v-179c0 -60 28 -92 91 -92s88 32 88 92v616h126v-620z" />
    <glyph glyph-name="meemarabic" unicode="&#x645;" horiz-adv-x="657" arabic-form="isolated" 
d="M616 252c0 -153 -74 -252 -212 -252h-132c-66 0 -92 -30 -92 -91v-86h-125v90c0 108 55 190 165 201c-18 39 -26 85 -26 139c0 150 77 253 210 253c135 0 212 -102 212 -254zM489 253c0 109 -34 144 -85 144c-49 0 -82 -35 -82 -143c0 -103 33 -139 82 -139
c51 0 85 38 85 138z" />
    <glyph glyph-name="noonarabic" unicode="&#x646;" horiz-adv-x="527" arabic-form="isolated" 
d="M331 554h-126v125h126v-125zM485 26c0 -121 -85 -203 -202 -205c-12 0 -18 -1 -27 0c-116 2 -201 85 -201 206v440h125v-437c0 -60 28 -92 91 -92s88 32 88 92v437h126v-441z" />
    <glyph glyph-name="heharabic" unicode="&#x647;" horiz-adv-x="518" arabic-form="isolated" 
d="M477 228c0 -152 -76 -228 -210 -228c-135 0 -212 76 -212 230c0 147 78 236 212 236c133 0 210 -89 210 -238zM351 228c0 105 -33 134 -84 134c-53 0 -84 -29 -84 -131c0 -98 30 -118 84 -118c52 0 84 20 84 115z" />
    <glyph glyph-name="wawarabic" unicode="&#x648;" horiz-adv-x="505" arabic-form="isolated" 
d="M463 32c0 -139 -89 -214 -222 -209l1 104c48 0 128 17 125 110c-15 -25 -49 -65 -120 -65c-130 0 -192 83 -192 245c0 157 73 249 203 249h205v-434zM338 214v141h-71c-73 0 -87 -84 -87 -136c0 -54 1 -137 80 -137c81 0 78 76 78 132z" />
    <glyph glyph-name="alefmaksuraarabic" unicode="&#x649;" horiz-adv-x="879" arabic-form="isolated" 
d="M837 219l-125 -64v186c-37 0 -80 -21 -80 -107v-234h-577c5 65 11 170 47 250c55 125 140 189 319 187v-107c-88 0 -150 -10 -196 -95c-19 -36 -30 -89 -35 -120h317v131c0 209 176 220 330 220v-247z" />
    <glyph glyph-name="yeharabic" unicode="&#x64a;" horiz-adv-x="879" arabic-form="isolated" 
d="M837 219l-125 -64v186c-37 0 -80 -21 -80 -107v-234h-577c5 65 11 170 47 250c55 125 140 189 319 187v-107c-88 0 -150 -10 -196 -95c-19 -36 -30 -89 -35 -120h317v131c0 209 176 220 330 220v-247zM488 -202h-113v125h113v-125zM327 -202h-113v125h113v-125z" />
    <glyph glyph-name="fathatanarabic" unicode="&#xfe70;" horiz-adv-x="0" arabic-form="isolated" 
d="M239 942c-15 -59 -53 -69 -82 -74l-186 -39c17 43 47 61 73 67zM224 854c-15 -59 -54 -69 -84 -74l-184 -39c16 43 45 61 73 67z" />
    <glyph glyph-name="dammatanarabic" unicode="&#xfe72;" horiz-adv-x="0" arabic-form="isolated" 
d="M279 770c0 0 -118 -48 -131 -52c-42 -17 -111 -35 -129 7c-19 45 19 74 18 93c-3 25 -33 -26 -45 -25c-10 2 -11 10 -9 15c17 32 53 69 87 50c23 -12 14 -39 1 -63c-5 -14 -17 -28 -11 -42c13 -22 43 0 54 5c-7 4 -11 9 -15 19c-32 67 114 136 151 53zM217 795l-8 18
c-7 15 -19 15 -39 8c-15 -6 -37 -15 -27 -35c8 -19 27 -12 43 -5z" />
    <glyph glyph-name="kasratanarabic" unicode="&#xfe74;" horiz-adv-x="0" arabic-form="isolated" 
d="M230 -224c-14 -59 -53 -68 -83 -74l-186 -39c18 44 47 62 75 67zM214 -312c-13 -59 -52 -68 -82 -74l-186 -39c18 43 47 61 75 67z" />
    <glyph glyph-name="fathaarabic" unicode="&#xfe76;" horiz-adv-x="0" arabic-form="isolated" 
d="M260 829c-14 -55 -54 -63 -84 -69l-187 -35c18 41 47 57 76 63z" />
    <glyph glyph-name="dammaarabic" unicode="&#xfe78;" horiz-adv-x="0" arabic-form="isolated" 
d="M269 780c0 0 -118 -49 -129 -53c-44 -15 -99 -33 -125 9c-23 35 17 81 32 79c-11 -18 -10 -42 1 -52c21 -18 47 -1 56 6c-6 4 -11 9 -15 17c-30 69 116 137 153 55zM209 804l-10 20c-7 15 -18 15 -37 8c-16 -6 -37 -17 -29 -35c9 -19 29 -12 44 -5z" />
    <glyph glyph-name="kasraarabic" unicode="&#xfe7a;" horiz-adv-x="0" arabic-form="isolated" 
d="M231 -221c-14 -57 -54 -64 -84 -69l-187 -36c18 41 47 58 74 63z" />
    <glyph glyph-name="shaddaarabic" unicode="&#xfe7c;" horiz-adv-x="0" arabic-form="isolated" 
d="M252 825c1 -28 -3 -58 -33 -73c-33 -16 -60 -8 -73 -1c-10 -11 -32 -32 -68 -32c-67 -1 -57 55 -40 98l44 13s-6 -24 -11 -42c-8 -33 31 -21 46 14c5 15 9 35 9 35l36 9s-7 -50 18 -53c28 -1 25 53 26 59l43 6c1 -17 1 -25 3 -33z" />
    <glyph glyph-name="sukunarabic" unicode="&#xfe7e;" horiz-adv-x="0" arabic-form="isolated" 
d="M150 861l-14 -62c-10 -39 -26 -80 -84 -69c-40 8 -51 40 -41 83c10 41 37 66 76 59zM98 832l-17 3c-18 4 -23 -18 -26 -31c-3 -12 -10 -34 10 -38c19 -4 22 19 24 31z" />
    <glyph glyph-name="peharabic" unicode="&#x67e;" horiz-adv-x="712" arabic-form="isolated" 
d="M671 206c0 -126 -81 -205 -216 -206h-181c-137 0 -219 78 -219 206v261h125v-258c0 -63 22 -94 87 -94h188c65 0 91 32 91 94v258h125v-261zM495 -209h-100v126h100v-126zM345 -209h-102v126h102v-126zM419 -358h-101v109h101v-109z" />
    <glyph glyph-name="tcheharabic" unicode="&#x686;" horiz-adv-x="599" arabic-form="isolated" 
d="M558 0h-283c-70 1 -98 -50 -98 -96v-81h-122v81c0 84 48 211 220 211h157c-11 256 -255 240 -255 240v114c271 0 381 -172 381 -373v-96zM543 -176h-100v110h100v-110zM393 -176h-100v110h100v-110zM467 -308h-100v92h100v-92z" />
    <glyph glyph-name="veharabic" unicode="&#x6a4;" horiz-adv-x="795" arabic-form="isolated" 
d="M594 720h-102v109h102v-109zM670 554h-101v125h101v-125zM520 554h-101v125h101v-125zM753 232c0 -154 -75 -232 -210 -232h-269c-137 0 -219 78 -219 206v202h125v-199c0 -63 22 -94 87 -94h84c-13 33 -20 73 -20 120c0 150 79 242 212 242s210 -91 210 -245zM627 234
c0 107 -33 136 -84 136s-84 -29 -84 -135c0 -99 30 -120 84 -120c52 0 84 22 84 119z" />
    <glyph glyph-name="jeharabic" unicode="&#x698;" horiz-adv-x="263" arabic-form="isolated" 
d="M221 33c0 -109 -70 -217 -221 -212v112c102 0 98 83 98 151v382h123s2 -11 0 -433zM143 719h-100v109h100v-109zM220 553h-102v125h102v-125zM70 553h-102v125h102v-125z" />
    <glyph glyph-name="alefwithfathatanisolated" unicode="&#xfd3d;" horiz-adv-x="269" arabic-form="isolated" 
d="M294 0c-157 0 -239 78 -239 205v443h125v-440c0 -61 28 -93 114 -93v-115zM267 885c-15 -59 -53 -69 -82 -74l-186 -39c17 43 47 61 73 67zM252 797c-15 -59 -54 -69 -84 -74l-184 -39c16 43 45 61 73 67z" />
    <glyph glyph-name="alefwithfathatanfinal" unicode="&#xfd3c;" horiz-adv-x="221" arabic-form="final" 
d="M180 0h-125v648h125v-648zM267 885c-15 -59 -53 -69 -82 -74l-186 -39c17 43 47 61 73 67zM252 797c-15 -59 -54 -69 -84 -74l-184 -39c16 43 45 61 73 67z" />
    <glyph glyph-name="alefwaslafinal" unicode="&#x671;" horiz-adv-x="269" arabic-form="final" 
d="M294 0c-157 0 -239 78 -239 205v443h125v-440c0 -61 28 -93 114 -93v-115zM224 774c0 -19 -11 -65 -70 -65h-130l16 44h19c5 0 8 2 8 9v50h44l-3 -26s6 17 14 25c12 14 23 19 41 19c48 0 61 -34 61 -56zM176 774c0 10 -10 14 -15 14c-21 0 -35 -18 -43 -35h36
c11 0 22 6 22 21z" />
    <glyph glyph-name="alefwaslaisolated" unicode="&#x671;" horiz-adv-x="221" arabic-form="isolated" 
d="M180 0h-125v648h125v-648zM224 774c0 -19 -11 -65 -70 -65h-130l16 44h19c5 0 8 2 8 9v50h44l-3 -26s6 17 14 25c12 14 23 19 41 19c48 0 61 -34 61 -56zM176 774c0 10 -10 14 -15 14c-21 0 -35 -18 -43 -35h36c11 0 22 6 22 21z" />
    <glyph glyph-name=".notdef" horiz-adv-x="500" 
d="M63 0h375v750h-375v-750zM125 63v625h250v-625h-250z" />
    <glyph glyph-name=".null" horiz-adv-x="0" 
 />
    <glyph glyph-name="CR" horiz-adv-x="333" 
 />
    <glyph glyph-name="space" unicode=" " horiz-adv-x="172" 
 />
    <glyph glyph-name="_4" horiz-adv-x="280" 
 />
    <glyph glyph-name="_13" horiz-adv-x="273" 
 />
    <glyph glyph-name="kashidaautoarabic" horiz-adv-x="103" 
d="M122 0h-137v115h137v-115z" />
    <glyph glyph-name="decimalseparatorarabic" unicode="&#x66b;" horiz-adv-x="230" 
d="M169 -1v249l-108 -87v-162h108z" />
    <glyph glyph-name="thousandsseparatorarabic" unicode="&#x66c;" horiz-adv-x="230" 
d="M169 -1v249l-108 -87v-162h108z" />
    <glyph glyph-name="nonbreakingspace" horiz-adv-x="623" 
 />
    <glyph glyph-name="guillemotleft" unicode="&#xab;" horiz-adv-x="404" 
d="M363 93c-113 46 -165 131 -165 216c0 87 52 171 165 219v-77c-59 -32 -91 -84 -91 -142c0 -56 32 -110 91 -141v-75zM206 93c-113 46 -165 131 -165 216c0 87 52 171 165 219v-77c-59 -32 -91 -84 -91 -142c0 -56 32 -110 91 -141v-75z" />
    <glyph glyph-name="guillemotright" unicode="&#xbb;" horiz-adv-x="404" 
d="M363 309c0 -85 -52 -170 -165 -216v75c58 31 91 85 91 141c0 58 -32 110 -91 142v77c113 -48 165 -132 165 -219zM206 309c0 -85 -52 -170 -165 -216v75c58 31 91 85 91 141c0 58 -32 110 -91 142v77c113 -48 165 -132 165 -219z" />
    <glyph glyph-name="divide" unicode="&#xf7;" 
d="M337 422c0 -33 -29 -62 -62 -62c-34 0 -62 29 -62 62c0 34 28 62 62 62s62 -28 62 -62zM510 203h-470v79h470v-79zM337 62c0 -35 -28 -62 -62 -62s-62 27 -62 62c0 34 28 62 62 62s62 -28 62 -62z" />
    <glyph glyph-name="exclam" unicode="!" horiz-adv-x="210" 
d="M168 194h-125v454h125v-454zM168 0h-125v133h125v-133z" />
    <glyph glyph-name="quotedbl" unicode="&#x22;" horiz-adv-x="323" 
d="M132 829l-17 -267h-64l-17 267h98zM266 829l-17 -267h-64l-17 267h98z" />
    <glyph glyph-name="dollar" unicode="$" horiz-adv-x="488" 
d="M447 198c0 -99 -61 -168 -156 -180v-85h-96v85c-92 12 -151 86 -154 191h131c8 -48 34 -76 75 -76c40 0 68 28 68 64c0 41 -14 52 -114 93c-87 34 -150 77 -150 179c0 93 52 154 144 168v66h96v-68c91 -22 132 -75 139 -169h-134c-5 36 -28 58 -61 58
c-30 0 -54 -21 -54 -50c0 -70 163 -70 233 -169c22 -31 33 -66 33 -107z" />
    <glyph glyph-name="percentarabic" unicode="&#x66a;" horiz-adv-x="346" 
d="M95 472l-110 35v123l110 -36v-122zM305 648l-264 -765h-82l262 765h84zM287 -95l-110 36v124l110 -38v-122z" />
    <glyph glyph-name="quotesingle" unicode="'" horiz-adv-x="264" 
d="M132 829l-17 -267h-64l-17 267h98z" />
    <glyph glyph-name="parenright" unicode=")" horiz-adv-x="261" 
d="M220 48c0 -54 -12 -95 -39 -132c-33 -47 -79 -80 -140 -96v129c48 21 66 48 66 99v386c0 53 -18 79 -66 101v129c39 -11 52 -16 81 -37c68 -48 98 -109 98 -193v-386z" />
    <glyph glyph-name="parenleft" unicode="(" horiz-adv-x="261" 
d="M220 -180c-61 16 -107 49 -140 96c-26 37 -39 78 -39 132v386c0 84 30 145 98 193c29 21 42 26 81 37v-129c-48 -22 -66 -48 -66 -101v-386c0 -51 18 -78 66 -99v-129z" />
    <glyph glyph-name="multiply" unicode="&#xd7;" 
d="M473 0h-107l-92 159l-90 -159h-107l144 232l-129 211h98l84 -145l83 145h99l-129 -211z" />
    <glyph glyph-name="plus" unicode="+" 
d="M510 184h-195v-184h-79v184h-196v79h195v184h80v-184h195v-79z" />
    <glyph glyph-name="commaarabic" unicode="&#x60c;" horiz-adv-x="230" 
d="M169 -1v249l-108 -87v-162h108z" />
    <glyph glyph-name="hyphen" unicode="-" 
d="M510 190h-470v78h470v-78z" />
    <glyph glyph-name="period" unicode="." horiz-adv-x="220" 
d="M179 0h-124v135h124v-135z" />
    <glyph glyph-name="slash" unicode="/" horiz-adv-x="346" 
d="M388 648l-264 -765h-83l263 765h84z" />
    <glyph glyph-name="zeroarabic" unicode="&#x660;" 
d="M344 139l-138 45v153l138 -46v-152z" />
    <glyph glyph-name="onearabic" unicode="&#x661;" 
d="M360 532h-45v-532h-125v648l170 -2v-114z" />
    <glyph glyph-name="twoarabic" unicode="&#x662;" 
d="M434 533l-192 -1v-532h-127v646h319v-113z" />
    <glyph glyph-name="threearabic" unicode="&#x663;" 
d="M525 498c0 -17 7 -176 -141 -176c-50 0 -68 16 -91 44c-18 -28 -41 -44 -91 -44c-23 0 -33 4 -49 12v-334h-128v648h128v-132c0 -69 -7 -84 31 -84c33 0 33 18 33 73c-1 41 0 82 0 141h120v-130c0 -73 -6 -84 31 -84c42 0 31 56 31 84v130h126v-148z" />
    <glyph glyph-name="fourarabic" unicode="&#x664;" 
d="M499 0h-232c-128 0 -216 78 -216 195c0 65 31 120 84 146c-37 26 -58 70 -58 124c0 148 115 181 232 181h190v-114h-170c-99 0 -119 -16 -119 -70c0 -51 22 -73 106 -73h183v-114h-201c-84 0 -112 -28 -112 -83c0 -50 27 -77 104 -77h209v-115z" />
    <glyph glyph-name="fivearabic" unicode="&#x665;" 
d="M481 296c0 -127 -8 -296 -217 -296c-129 0 -195 99 -195 258c0 156 70 258 199 258h213v-220zM356 256v150h-80c-73 0 -78 -94 -78 -146s1 -151 78 -151c83 0 80 92 80 147z" />
    <glyph glyph-name="sixarabic" unicode="&#x666;" 
d="M434 0h-126v532l-193 1v113h319v-646z" />
    <glyph glyph-name="sevenarabic" unicode="&#x667;" 
d="M495 646l-158 -646h-121l-161 646h137l84 -401l83 401h136z" />
    <glyph glyph-name="eightarabic" unicode="&#x668;" 
d="M495 1h-136l-83 403l-84 -403h-137l161 648h121z" />
    <glyph glyph-name="ninearabic" unicode="&#x669;" 
d="M469 0h-124v170h-70c-89 0 -194 68 -194 234c0 158 70 242 197 244h191v-648zM345 286v250h-58c-66 0 -78 -81 -78 -129c0 -61 21 -121 78 -121h58z" />
    <glyph glyph-name="colon" unicode=":" horiz-adv-x="206" 
d="M165 335h-124v135h124v-135zM165 0h-124v135h124v-135z" />
    <glyph glyph-name="semicolonarabic" unicode="&#x61b;" horiz-adv-x="271" 
d="M230 487l-68 -222h-121l83 222h106zM165 0h-124v135h124v-135z" />
    <glyph glyph-name="greater" unicode="&#x3e;" horiz-adv-x="478" 
d="M53 454l234 -233l-234 -234h129l234 234l-234 233h-129z" />
    <glyph glyph-name="equal" unicode="=" 
d="M510 245h-470v78h470v-78zM510 93h-470v80h470v-80z" />
    <glyph glyph-name="less" unicode="&#x3c;" horiz-adv-x="478" 
d="M417 -10l-234 233l234 234h-129l-234 -234l234 -233h129z" />
    <glyph glyph-name="questionarabic" unicode="&#x61f;" horiz-adv-x="472" 
d="M430 448h-139c0 66 -16 92 -59 92c-30 0 -51 -22 -51 -56c0 -26 10 -45 33 -69l21 -19c62 -59 73 -84 73 -153v-71h-125v55c0 31 -7 45 -35 69c-30 24 -49 41 -63 56c-27 30 -44 76 -44 124c0 108 81 188 190 188c55 0 104 -18 139 -49c41 -38 56 -83 60 -167zM308 0
h-125v133h125v-133z" />
    <glyph glyph-name="asteriskarabic" unicode="&#x66d;" horiz-adv-x="455" 
d="M414 219l-116 -38l73 -93l-77 -56l-69 99l-66 -99l-77 56l75 93l-116 38l32 89l111 -43l-4 116h96l-5 -116l113 43z" />
    <glyph glyph-name="bracketright" unicode="]" horiz-adv-x="261" 
d="M220 48c0 -54 -12 -95 -39 -132c-33 -47 -79 -80 -140 -96v129c48 21 66 48 66 99v386c0 53 -18 79 -66 101v129c39 -11 52 -16 81 -37c68 -48 98 -109 98 -193v-386z" />
    <glyph glyph-name="backslash" unicode="\" horiz-adv-x="408" 
d="M367 -117h-82l-264 765h83z" />
    <glyph glyph-name="bracketleft" unicode="[" horiz-adv-x="261" 
d="M220 -180c-61 16 -107 49 -140 96c-26 37 -39 78 -39 132v386c0 84 30 145 98 193c29 21 42 26 81 37v-129c-48 -22 -66 -48 -66 -101v-386c0 -51 18 -78 66 -99v-129z" />
    <glyph glyph-name="underscore" unicode="_" horiz-adv-x="485" 
d="M485 -165h-485v93h485v-93z" />
    <glyph glyph-name="tatweelarabic" unicode="&#x640;" horiz-adv-x="159" 
d="M172 0h-187v115h187v-115z" />
    <glyph glyph-name="braceright" unicode="}" horiz-adv-x="383" 
d="M338 272v82h-34c-36 0 -62 22 -62 73v155c0 84 -42 128 -131 128h-65v-84h35c25 0 41 -3 49 -10c13 -9 19 -30 19 -63v-148c0 -44 20 -75 60 -93c-40 -17 -60 -47 -60 -92v-147c0 -61 -13 -73 -68 -73h-35v-84h65c89 0 131 43 131 128v154c0 52 26 74 62 74h34z" />
    <glyph glyph-name="bar" unicode="|" horiz-adv-x="186" 
d="M44 -65h103v780h-103v-780z" />
    <glyph glyph-name="braceleft" unicode="{" horiz-adv-x="383" 
d="M338 -84v84h-37c-23 0 -40 3 -49 9c-11 9 -17 30 -17 64v147c0 45 -21 75 -62 92c41 18 62 49 62 93v148c0 60 13 73 66 73h37v84h-66c-89 0 -132 -44 -132 -128v-155c0 -51 -25 -73 -60 -73h-34v-82h34c35 0 60 -22 60 -74v-154c0 -85 41 -128 132 -128h66z" />
    <glyph glyph-name="zero" unicode="0" 
d="M344 139l-138 45v153l138 -46v-152z" />
    <glyph glyph-name="one" unicode="1" 
d="M360 532h-45v-532h-125v648l170 -2v-114z" />
    <glyph glyph-name="two" unicode="2" 
d="M434 533l-192 -1v-532h-127v646h319v-113z" />
    <glyph glyph-name="three" unicode="3" 
d="M525 498c0 -17 7 -176 -141 -176c-50 0 -68 16 -91 44c-18 -28 -41 -44 -91 -44c-23 0 -33 4 -49 12v-334h-128v648h128v-132c0 -69 -7 -84 31 -84c33 0 33 18 33 73c-1 41 0 82 0 141h120v-130c0 -73 -6 -84 31 -84c42 0 31 56 31 84v130h126v-148z" />
    <glyph glyph-name="four" unicode="4" 
d="M499 0h-232c-128 0 -216 78 -216 195c0 65 31 120 84 146c-37 26 -58 70 -58 124c0 148 115 181 232 181h190v-114h-170c-99 0 -119 -16 -119 -70c0 -51 22 -73 106 -73h183v-114h-201c-84 0 -112 -28 -112 -83c0 -50 27 -77 104 -77h209v-115z" />
    <glyph glyph-name="five" unicode="5" 
d="M481 296c0 -127 -8 -296 -217 -296c-129 0 -195 99 -195 258c0 156 70 258 199 258h213v-220zM356 256v150h-80c-73 0 -78 -94 -78 -146s1 -151 78 -151c83 0 80 92 80 147z" />
    <glyph glyph-name="six" unicode="6" 
d="M434 0h-126v532l-193 1v113h319v-646z" />
    <glyph glyph-name="seven" unicode="7" 
d="M495 646l-158 -646h-121l-161 646h137l84 -401l83 401h136z" />
    <glyph glyph-name="eight" unicode="8" 
d="M495 1h-136l-83 403l-84 -403h-137l161 648h121z" />
    <glyph glyph-name="nine" unicode="9" 
d="M469 0h-124v170h-70c-89 0 -194 68 -194 234c0 158 70 242 197 244h191v-648zM345 286v250h-58c-66 0 -78 -81 -78 -129c0 -61 21 -121 78 -121h58z" />
    <glyph glyph-name="quotedblleft" unicode="&#x201c;" horiz-adv-x="340" 
d="M298 733l-66 -171h-70l63 171h73zM177 733l-64 -171h-72l65 171h71z" />
    <glyph glyph-name="quotedblright" unicode="&#x201d;" horiz-adv-x="340" 
d="M298 733l-66 -171h-70l63 171h73zM177 733l-64 -171h-72l65 171h71z" />
    <glyph glyph-name="hyphenminus" unicode="&#x2010;" 
d="M510 190h-470v78h470v-78z" />
    <glyph glyph-name="delete" unicode="&#x2421;" horiz-adv-x="709" 
d="M674 57v31h-127v229h-36v-260h163zM479 57v31h-159v88h143v31h-143v79h153v31h-189v-260h195zM253 189c0 71 -26 112 -79 124c-10 3 -25 4 -46 4h-90v-260h95c15 0 29 2 41 5c53 13 79 55 79 127zM218 189c0 -37 -9 -65 -26 -83c-13 -12 -34 -18 -63 -18h-56v198h55
c20 0 35 -2 44 -5c31 -12 46 -43 46 -92z" />
    <glyph glyph-name="nbspace" unicode="&#xa0;" horiz-adv-x="623" 
 />
    <glyph glyph-name="ornaterightparenthesis" unicode="&#xfd3f;" horiz-adv-x="353" 
d="M312 242c0 -129 -55 -253 -151 -347c-50 -45 -65 -56 -116 -75v124c47 31 88 77 113 127s41 119 41 174c0 85 -34 176 -90 238c-22 24 -35 35 -68 57v124c157 -63 271 -241 271 -422z" />
    <glyph glyph-name="ornateleftparenthesis" unicode="&#xfd3e;" horiz-adv-x="353" 
d="M312 542c-54 -37 -89 -77 -118 -134c-25 -49 -40 -110 -40 -163c0 -55 16 -124 41 -174c11 -23 28 -46 47 -70c25 -27 36 -37 66 -57v-124c-74 27 -150 97 -202 184c-41 70 -65 157 -65 238c0 181 114 359 271 422v-122z" />
    <glyph glyph-name="righttoleft" unicode="&#x200f;" horiz-adv-x="20" 
d="M20 0v722h-96l36 36l-14 14l-60 -61l60 -61l14 14l-38 38h78v-702h20z" />
    <glyph glyph-name="lefttoright" unicode="&#x200e;" horiz-adv-x="20" 
d="M134 711l-60 61l-14 -14l36 -36h-96v-722h20v702h78l-38 -38l14 -14z" />
    <glyph glyph-name="zerojoin" unicode="&#x200d;" horiz-adv-x="20" 
d="M71 663l-47 48l47 47l-14 14l-47 -48l-47 48l-14 -14l48 -47l-48 -48l14 -13l37 37v-687h20v687l37 -37z" />
    <glyph glyph-name="zeronojoin" unicode="&#x200c;" horiz-adv-x="20" 
d="M20 0v722h-20v-722h20z" />
    <glyph glyph-name="extendedarabicindicdigitnine" unicode="&#x6f9;" 
d="M469 0h-124v170h-70c-89 0 -194 68 -194 234c0 158 70 242 197 244h191v-648zM345 286v250h-58c-66 0 -78 -81 -78 -129c0 -61 21 -121 78 -121h58z" />
    <glyph glyph-name="extendedarabicindicdigiteight" unicode="&#x6f8;" 
d="M495 1h-136l-83 403l-84 -403h-137l161 648h121z" />
    <glyph glyph-name="extendedarabicindicdigitseven" unicode="&#x6f7;" 
d="M495 646l-158 -646h-121l-161 646h137l84 -401l83 401h136z" />
    <glyph glyph-name="extendedarabicindicdigitsix" unicode="&#x6f6;" 
d="M434 0h-126v532l-193 1v113h319v-646z" />
    <glyph glyph-name="extendedarabicindicdigitfive" unicode="&#x6f5;" 
d="M481 296c0 -127 -8 -296 -217 -296c-129 0 -195 99 -195 258c0 156 70 258 199 258h213v-220zM356 256v150h-80c-73 0 -78 -94 -78 -146s1 -151 78 -151c83 0 80 92 80 147z" />
    <glyph glyph-name="extendedarabicindicdigitfour" unicode="&#x6f4;" 
d="M499 0h-232c-128 0 -216 78 -216 195c0 65 31 120 84 146c-37 26 -58 70 -58 124c0 148 115 181 232 181h190v-114h-170c-99 0 -119 -16 -119 -70c0 -51 22 -73 106 -73h183v-114h-201c-84 0 -112 -28 -112 -83c0 -50 27 -77 104 -77h209v-115z" />
    <glyph glyph-name="extendedarabicindicdigitthree" unicode="&#x6f3;" 
d="M525 498c0 -17 7 -176 -141 -176c-50 0 -68 16 -91 44c-18 -28 -41 -44 -91 -44c-23 0 -33 4 -49 12v-334h-128v648h128v-132c0 -69 -7 -84 31 -84c33 0 33 18 33 73c-1 41 0 82 0 141h120v-130c0 -73 -6 -84 31 -84c42 0 31 56 31 84v130h126v-148z" />
    <glyph glyph-name="extendedarabicindicdigittwo" unicode="&#x6f2;" 
d="M434 533l-192 -1v-532h-127v646h319v-113z" />
    <glyph glyph-name="extendedarabicindicdigitone" unicode="&#x6f1;" 
d="M360 532h-45v-532h-125v648l170 -2v-114z" />
    <glyph glyph-name="extendedarabicindicdigitzero" unicode="&#x6f0;" 
d="M344 139l-138 45v153l138 -46v-152z" />
    <glyph glyph-name="superscriptalef" unicode="&#x670;" horiz-adv-x="0" 
d="M23 684h54v234h-54v-234z" />
    <glyph glyph-name="maddaabove" unicode="&#x653;" horiz-adv-x="0" 
d="M261 731c-48 -26 -73 -34 -111 -34c-37 0 -69 14 -102 14c-8 0 -15 1 -45 -10l-65 51c41 23 66 32 96 32c36 0 69 -15 103 -15c11 0 28 1 62 17z" />
    <glyph glyph-name="hamzaabove" unicode="&#x654;" horiz-adv-x="0" 
d="M195 703h-214v49h44v10c0 24 8 92 82 92c39 0 63 -17 77 -50c-8 -1 -53 -9 -53 -9c-7 9 -14 12 -22 12c-29 0 -29 -30 -29 -44v-11h115v-49z" />
    <glyph glyph-name="hamzabelow" unicode="&#x655;" horiz-adv-x="0" 
d="M195 -201h-214v51h44v8c0 25 8 92 82 92c39 0 63 -16 77 -49c-8 -1 -53 -10 -53 -10c-7 10 -14 13 -22 13c-29 0 -29 -29 -29 -44v-10h115v-51z" />
    <glyph glyph-name="zerowidthnobreakspace" unicode="&#xfeff;" horiz-adv-x="0" 
 />
    <glyph glyph-name="_246" horiz-adv-x="0" 
 />
    <glyph glyph-name="at" unicode="*" horiz-adv-x="455" 
d="M414 219l-116 -38l73 -93l-77 -56l-69 99l-66 -99l-77 56l75 93l-116 38l32 89l111 -43l-4 116h96l-5 -116l113 43z" />
  </font>
</defs>
</svg>
